message

    Z.Nation.4x03.Scomparsi.ITA.ENG.1080p.BDMux.DD5.1.x264-Morpheus.mkv

    Likes 0 Dislikes 0
    Seeders 1
    Leechers 0
    File Size 2.84 GB
    Downloads 0
    Uploaded Oct 22, 2018
    Files
    Trackers
    More Info
    FileZ.Nation.4x03.Scomparsi.ITA.ENG.1080p.BDMux.DD5.1.x264-Morpheus.mkv
    Tracker Seeder Leecher
    udp://tracker.bitsearch.to:1337/announce 0 0
    udp://tracker.opentrackr.org:1337/announce 0 0
    udp://tracker.moeking.me:6969/announce 0 0
    udp://tracker.openbittorrent.com:80/announce 1 0
    udp://tracker.torrent.eu.org:451/announce 0 0
    udp://open.stealth.si:80/announce 0 0
    udp://ipv4.tracker.harry.lu:80/announce 0 0
    udp://tracker4.itzmx.com:2710/announce 0 0
    udp://retracker.lanta-net.ru:2710/announce 0 0
    udp://tracker.tiny-vps.com:6969/announce 1 0
    udp://exodus.desync.com:6969/announce 0 0
    udp://explodie.org:6969/announce 0 0
    udp://tracker.internetwarriors.net:1337/announce 1 0
    • InfoHash: 59C9C279FFA678853247B99EAF3BA5F9868A6FC8
    • Last Updated: Jan 24, 2022
    • File Count: 1
    • File Category: 3
    • Tags: TV, HD
    This Torrent is seen on

    Z.Nation.4x03.Scomparsi.ITA.ENG.1080p.BDMux.DD5.1.x264-Morpheus.mkv

    Source: 1337x

    Uploaded By: ppb1


    STAGIONE 4
    BDMUX 1080p
    ITA - ENG AC3 5.1



    .: Dati Serie :.


    Nazione : Stati Uniti d'America
    Anno : 2017
    Genere : azione, horror, commedia, post apocalittico
    Stagioni 4
    Episodi : 13
    Durata : 45 min circa
    Lingua : ITA - ENG
    Cast :
    • Kellita Smith: Roberta Warren
    • DJ Qualls: Cittadino Z
    • Michael Welch: Mack Thompson
    • Keith Allan: Alvin Murphy
    • Anastasia Baranova: Addy Carver
    • Russell Hodgkinson: Doc
    • Pisay Pao: Cassandra
    • Nat Zang: Diecimila
    • Tom Everett Scott: Charles Garnett
    • Harold Perrineau: Mark Hammond
    • Matt Cedeño: Javier Vasquez
    • Emilio Rivera: Escorpion
    • Tara Holt: Lucy Murphy
    • Joseph Gatt: L'Uomo
    • Sydney Viengluang: Sun Mei
    • Ramona Young: Kaya
    • Natalie Jongjaroenlarp: Red
    • Holden Goyette: Cinquemila
    • Grace Gilliam: Lilley
    • Henry Rollins: Mueller

    Three years after the zombie virus has gutted the United States of America a team of everyday heroes must transport the only known survivor of the plague from New York to California, where the last functioning viral lab waits for his blood.

    Tre anni dopo lo scoppio di un'apocalisse zombie, un gruppo improvvisato di sopravvissuti, sotto la supervisione da remoto del "Cittadino Z", dovrà riuscire ad attraversare con mezzi di fortuna gli Stati Uniti per portare sano e salvo in California l'unico uomo che può fermare l'epidemia, ovvero l'unico a cui è stato iniettato un vaccino sperimentale grazie al quale non si è trasformato dopo essere stato morso.


    .: Screenshot :.



    .: Caratteristiche Tecniche :.
    [spoiler]
    Z.Nation.4x01.Il.Sogno.Di.Warren.ITA.ENG.1080p.BDMux.DD5.1.x264-Morpheus.mkv
    Format                                   : Matroska
    Format version                           : Version 4 / Version 2
    File size                                : 2.64 GiB
    Duration                                 : 43mn 9s
    Overall bit rate                         : 8 769 Kbps
    Encoded date                             : UTC 2018-05-02 21:11:54
    Writing application                      : mkvmerge v7.6.0 ('Garden of Dreams') 64bit built on Feb  8 2015 15:12:28
    Writing library                          : libebml v1.3.1 + libmatroska v1.4.2
    DURATION                                 : 00:41:45.962000000
    NUMBER_OF_FRAMES                         : 512
    NUMBER_OF_BYTES                          : 18476
    _STATISTICS_WRITING_APP                  : mkvmerge v7.6.0 ('Garden of Dreams') 64bit built on Feb  8 2015 15:12:28
    _STATISTICS_WRITING_DATE_UTC             : 2018-05-02 21:11:54
    _STATISTICS_TAGS                         : BPS DURATION NUMBER_OF_FRAMES NUMBER_OF_BYTES

    Video
    ID                                       : 1
    Format                                   : AVC
    Format/Info                              : Advanced Video Codec
    Format profile                           : [email protected]
    Format settings, CABAC                   : Yes
    Format settings, ReFrames                : 4 frames
    Codec ID                                 : V_MPEG4/ISO/AVC
    Duration                                 : 43mn 9s
    Bit rate                                 : 8 003 Kbps
    Width                                    : 1 920 pixels
    Height                                   : 1 080 pixels
    Display aspect ratio                     : 16:9
    Frame rate                               : 23.976 fps
    Color space                              : YUV
    Chroma subsampling                       : 4:2:0
    Bit depth                                : 8 bits
    Scan type                                : Progressive
    Bits/(Pixel*Frame)                       : 0.161
    Stream size                              : 2.36 GiB (89%)
    Writing library                          : x264 core 155 r2901 7d0ff22
    Encoding settings                        : cabac=1 / ref=4 / deblock=1:-3:-3 / analyse=0x3:0x113 / me=umh / subme=8 / psy=1 / psy_rd=1.00:0.00 / mixed_ref=1 / me_range=32 / chroma_me=1 / trellis=1 / 8x8dct=1 / cqm=0 / deadzone=21,11 / fast_pskip=1 / chroma_qp_offset=-2 / threads=6 / lookahead_threads=1 / sliced_threads=0 / nr=0 / decimate=1 / interlaced=0 / bluray_compat=0 / constrained_intra=0 / bframes=3 / b_pyramid=2 / b_adapt=2 / b_bias=0 / direct=3 / weightb=1 / open_gop=0 / weightp=2 / keyint=240 / keyint_min=24 / scenecut=40 / intra_refresh=0 / rc_lookahead=50 / rc=2pass / mbtree=1 / bitrate=8003 / ratetol=1.0 / qcomp=0.60 / qpmin=0 / qpmax=69 / qpstep=4 / cplxblur=20.0 / qblur=0.5 / ip_ratio=1.40 / aq=3:0.80
    Default                                  : Yes
    Forced                                   : No
    _STATISTICS_WRITING_APP                  : mkvmerge v7.6.0 ('Garden of Dreams') 64bit built on Feb  8 2015 15:12:28
    _STATISTICS_WRITING_DATE_UTC             : 2018-05-02 21:11:54
    _STATISTICS_TAGS                         : BPS DURATION NUMBER_OF_FRAMES NUMBER_OF_BYTES
    DURATION                                 : 00:43:09.712000000
    NUMBER_OF_FRAMES                         : 62091
    NUMBER_OF_BYTES                          : 2589415738

    Audio #1
    ID                                       : 2
    Format                                   : AC-3
    Format/Info                              : Audio Coding 3
    Mode extension                           : CM (complete main)
    Codec ID                                 : A_AC3
    Duration                                 : 43mn 9s
    Bit rate mode                            : Constant
    Bit rate                                 : 384 Kbps
    Channel(s)                               : 6 channels
    Channel positions                        : Front: L C R, Side: L R, LFE
    Sampling rate                            : 48.0 KHz
    Bit depth                                : 16 bits
    Compression mode                         : Lossy
    Stream size                              : 119 MiB (4%)
    Title                                    : ITA
    Language                                 : Italian
    Default                                  : Yes
    Forced                                   : Yes

    Audio #2
    ID                                       : 3
    Format                                   : AC-3
    Format/Info                              : Audio Coding 3
    Mode extension                           : CM (complete main)
    Codec ID                                 : A_AC3
    Duration                                 : 43mn 9s
    Bit rate mode                            : Constant
    Bit rate                                 : 384 Kbps
    Channel(s)                               : 6 channels
    Channel positions                        : Front: L C R, Side: L R, LFE
    Sampling rate                            : 48.0 KHz
    Bit depth                                : 16 bits
    Compression mode                         : Lossy
    Stream size                              : 119 MiB (4%)
    Title                                    : ENG
    Language                                 : English
    Default                                  : No
    Forced                                   : No

    Text #1
    ID                                       : 4
    Format                                   : UTF-8
    Codec ID                                 : S_TEXT/UTF8
    Codec ID/Info                            : UTF-8 Plain Text
    Title                                    : ITA - Forced
    Language                                 : Italian
    Default                                  : Yes
    Forced                                   : Yes

    Text #2
    ID                                       : 5
    Format                                   : UTF-8
    Codec ID                                 : S_TEXT/UTF8
    Codec ID/Info                            : UTF-8 Plain Text
    Language                                 : Italian
    Default                                  : No
    Forced                                   : No

    Text #3
    ID                                       : 6
    Format                                   : UTF-8
    Codec ID                                 : S_TEXT/UTF8
    Codec ID/Info                            : UTF-8 Plain Text
    Language                                 : English
    Default                                  : No
    Forced                                   : No

    Menu
    00:00:00.000                             : en:00:00:00.000
    00:12:54.232                             : en:00:12:54.232
    00:23:02.965                             : en:00:23:02.965
    00:36:30.980                             : en:00:36:30.980


    [/spoiler]

    .: Ringraziamenti :.






    Comments (0)
     

    Write your comment

    Did you like this torrent? [Optional]