message

    X-X-X -Uncensored Season 1 Complete 1080p WEB-RIP x264 AC3 2.0 ~ Ranvijay

    Likes 0 Dislikes 0
    Seeders 0
    Leechers 0
    File Size 2.53 GB
    Downloads 0
    Uploaded Oct 22, 2018
    Files
    Trackers
    More Info
    FolderX-X-X -Uncensored Season 1 Complete 1080p WEB-RIP x264 AC3 2.0 ~ Ranvijay
    FileSpecialRDP - Premium & Affordable Web Hosting Solution.url
    FileSample X-X-X S01 1080p ~ Ranvijay.mkv
    FileX-X-X S01 E05 1080p ~ Ranvijay.mkv
    FileX-X-X S01 E03 1080p ~ Ranvijay.mkv
    FileX-X-X S01 E02 1080p ~ Ranvijay.mkv
    FileX-X-X S01 E01 1080p ~ Ranvijay.mkv
    FileX-X-X S01 E04 1080p ~ Ranvijay.mkv
    Tracker Seeder Leecher
    udp://tracker.opentrackr.org:1337/announce 0 0
    udp://ipv4.tracker.harry.lu:80/announce 0 0
    udp://tracker.moeking.me:6969/announce 0 0
    udp://tracker.torrent.eu.org:451/announce 0 0
    udp://open.stealth.si:80/announce 0 0
    udp://tracker.bitsearch.to:1337/announce 0 0
    udp://tracker4.itzmx.com:2710/announce 0 0
    udp://retracker.lanta-net.ru:2710/announce 0 0
    udp://tracker.tiny-vps.com:6969/announce 0 0
    udp://exodus.desync.com:6969/announce 0 0
    udp://tracker.internetwarriors.net:1337/announce 0 0
    • InfoHash: DBE59CEE7EC23A218974882113A5AE0D0CC71F84
    • Last Updated: Jan 24, 2022
    • File Count: 7
    • File Category: 2
    • Tags: ShareSpark, Ranvijay, Movies, Bollywood
    This Torrent is seen on

    X-X-X -Uncensored Season 1 Complete 1080p WEB-RIP x264 AC3 2.0 ~ Ranvijay

    Source: 1337x

    Uploaded By: TheFighter



    X-X-X -Uncensored Season 1 Complete 1080p WEB-RIP x264  AC3 2.0 ~ Ranvijay

    Buy RDP Online

    General
    Format                                   : Matroska
    Format version                           : Version 4 / Version 2
    File size                                : 539 MiB
    Duration                                 : 24 min 2 s
    Overall bit rate                         : 3 133 kb/s
    Movie name                               : X-X-X S01 E01 1080p ~ Ranvijay

    Video
    ID                                       : 1
    Format                                   : AVC
    Format/Info                              : Advanced Video Codec
    Duration                                 : 24 min 2 s
    Bit rate                                 : 3 000 kb/s
    Width                                    : 1 920 pixels
    Height                                   : 824 pixels
    Display aspect ratio                     : 2.35:1
    Frame rate mode                          : Constant
    Frame rate                               : 23.900 FPS
    Color space                              : YUV
    Chroma subsampling                       : 4:2:0
    Bit depth                                : 8 bits
    Scan type                                : Progressive
    Bits/(Pixel*Frame)                       : 0.079
    Stream size                              : 505 MiB (94%)
    Title                                    : ~Ranvijay~

    Audio
    ID                                       : 2
    Format                                   : AC-3
    Format/Info                              : Audio Coding 3
    Codec ID                                 : A_AC3
    Duration                                 : 24 min 2 s
    Bit rate mode                            : Constant
    Bit rate                                 : 192 kb/s
    Channel(s)                               : 2 channels
    Channel positions                        : Front: L R
    Sampling rate                            : 48.0 kHz
    Frame rate                               : 31.250 FPS (1536 SPF)
    Bit depth                                : 16 bits
    Compression mode                         : Lossy
    Delay relative to video                  : -5 ms
    Stream size                              : 33.0 MiB (6%)
    Title                                    : ~Ranvijay~
    Language                                 : Hindi
    Service kind                             : Complete Main
    Default                                  : Yes
    Forced                                   : Yes



    Don't walk as you are king, walk as you don't care who the king is....!!

    Comments (0)
     

    Write your comment

    Did you like this torrent? [Optional]