message

    The Shape Of Water (2017) 720p BluRay x264 Eng-Hindi AC3 DD5.1 [Team SSX].mkv

    Likes 0 Dislikes 0
    Seeders 0
    Leechers 0
    File Size 1.62 GB
    Downloads 0
    Uploaded Oct 22, 2018
    Files
    Trackers
    More Info
    FileThe Shape Of Water (2017) 720p BluRay x264 Eng-Hindi AC3 DD5.1 [Team SSX].mkv
    Tracker Seeder Leecher
    udp://tracker.bitsearch.to:1337/announce 0 0
    udp://tracker.opentrackr.org:1337/announce 0 0
    udp://ipv4.tracker.harry.lu:80/announce 0 0
    udp://tracker.moeking.me:6969/announce 0 0
    udp://tracker.openbittorrent.com:80/announce 0 0
    udp://tracker.torrent.eu.org:451/announce 0 0
    udp://open.stealth.si:80/announce 0 0
    udp://tracker4.itzmx.com:2710/announce 0 0
    udp://retracker.lanta-net.ru:2710/announce 0 0
    udp://tracker.tiny-vps.com:6969/announce 0 0
    udp://exodus.desync.com:6969/announce 0 0
    udp://explodie.org:6969/announce 0 0
    udp://tracker.internetwarriors.net:1337/announce 0 0
    • InfoHash: D31488E9AB8112BD1B601396AB1BAC91181CDF3C
    • Last Updated: Aug 7, 2021
    • File Count: 1
    • File Category: 2
    • Tags: Movies, Dubs/Dual Audio
    Movie Information

    The Shape of Water

    Movie
    From master storyteller Guillermo del Toro comes THE SHAPE OF WATER, an otherworldly fable set against the backdrop of Cold War era America circa 1962. In the hidden high-security government laboratory where she works, lonely Elisa (Sally Hawkins) is trapped in a life of isolation. Elisa's life is changed forever when she and co-worker Zelda (Octavia Spencer) discover a secret classified experiment. Rounding out the cast are Michael Shannon, Richard Jenkins, Michael Stuhlbarg, and Doug Jones.
    Rating: Rating: 7.3/10
    time Duration: 123 Minutes
    Calender Release Date: Feb 22, 2018
    Country: USA, Canada, Mexico
    This Torrent is seen on

    The Shape Of Water (2017) 720p BluRay x264 Eng-Hindi AC3 DD5.1 Mult-Sub [Team SSX]

    Source: 1337x

    Uploaded By: DarkRelease



    The Shape Of Water (2017) 720p BluRay x264 Eng-Hindi AC3 DD5.1 Mult-Sub [Team SSX]




    General

    Format                                   : Matroska
    Format version                           : Version 4 / Version 2
    File size                                : 1.51 GiB
    Duration                                 : 2 h 3 min
    Overall bit rate                         : 1 754 kb/s


    Video
    ID                                       : 1
    Format                                   : AVC
    Format/Info                              : Advanced Video Codec
    Format profile                           : [email protected]
    Format settings                          : CABAC / 4 Ref Frames
    Format settings, CABAC                   : Yes
    Format settings, RefFrames               : 4 frames
    Codec ID                                 : V_MPEG4/ISO/AVC
    Duration                                 : 2 h 3 min
    Bit rate                                 : 1 150 kb/s
    Width                                    : 1 280 pixels
    Height                                   : 682 pixels
    Display aspect ratio                     : 1.85:1
    Frame rate mode                          : Constant
    Frame rate                               : 23.976 (24000/1001) FPS
    Color space                              : YUV
    Chroma subsampling                       : 4:2:0
    Bit depth                                : 8 bits
    Scan type                                : Progressive
    Bits/(Pixel*Frame)                       : 0.055
    Stream size                              : 1 014 MiB (66%)
    Default                                  : Yes
    Forced                                   : No

    Audio #1
    ID                                       : 2
    Format                                   : AAC
    Format/Info                              : Advanced Audio Codec
    Format profile                           : LC
    Codec ID                                 : A_AAC-2
    Duration                                 : 2 h 3 min
    Bit rate                                 : 138 kb/s
    Channel(s)                               : 2 channels
    Channel positions                        : Front: L R
    Sampling rate                            : 48.0 kHz
    Frame rate                               : 46.875 FPS (1024 SPF)
    Compression mode                         : Lossy
    Delay relative to video                  : -43 ms
    Stream size                              : 121 MiB (8%)
    Default                                  : No
    Forced                                   : No

    Audio #2
    ID                                       : 3
    Format                                   : AC-3
    Format/Info                              : Audio Coding 3
    Codec ID                                 : A_AC3
    Duration                                 : 2 h 3 min
    Bit rate mode                            : Constant
    Bit rate                                 : 448 kb/s
    Channel(s)                               : 6 channels
    Channel positions                        : Front: L C R, Side: L R, LFE
    Sampling rate                            : 48.0 kHz
    Frame rate                               : 31.250 FPS (1536 SPF)
    Bit depth                                : 16 bits
    Compression mode                         : Lossy
    Delay relative to video                  : -43 ms
    Stream size                              : 395 MiB (26%)
    Language                                 : Hindi
    Service kind                             : Complete Main
    Default                                  : Yes
    Forced                                   : No

    Text #1
    ID                                       : 4
    Format                                   : PGS
    Muxing mode                              : zlib
    Codec ID                                 : S_HDMV/PGS
    Codec ID/Info                            : Picture based subtitle format used on BDs/HD-DVDs
    Duration                                 : 2 h 2 min
    Bit rate                                 : 21.7 kb/s
    Count of elements                        : 3856
    Stream size                              : 19.1 MiB (1%)
    Default                                  : Yes
    Forced                                   : No

    Text #2
    ID                                       : 5
    Format                                   : PGS
    Muxing mode                              : zlib
    Codec ID                                 : S_HDMV/PGS
    Codec ID/Info                            : Picture based subtitle format used on BDs/HD-DVDs
    Duration                                 : 2 h 1 min
    Bit rate                                 : 23.2 kb/s
    Count of elements                        : 2825
    Stream size                              : 20.1 MiB (1%)
    Default                                  : No
    Forced                                   : No

    Text #3
    ID                                       : 6
    Format                                   : PGS
    Muxing mode                              : zlib
    Codec ID                                 : S_HDMV/PGS
    Codec ID/Info                            : Picture based subtitle format used on BDs/HD-DVDs
    Duration                                 : 1 h 47 min
    Bit rate                                 : 1 234 b/s
    Count of elements                        : 338
    Stream size                              : 971 KiB (0%)
    Default                                  : No
    Forced                                   : No










    SAMPLE






    Comments (0)
     

    Write your comment

    Did you like this torrent? [Optional]