message

    The Meg 2018 720p HDTC x264 [MW]

    Likes 0 Dislikes 0
    Seeders 0
    Leechers 0
    File Size 1.02 GB
    Downloads 0
    Uploaded Oct 22, 2018
    Files
    Trackers
    More Info
    FolderThe Meg 2018 720p HDTC x264 [MW]
    FileThe Meg 2018 720p HDTC x264 [MW].mkv
    Tracker Seeder Leecher
    udp://tracker.bitsearch.to:1337/announce 0 0
    udp://tracker.opentrackr.org:1337/announce 0 0
    udp://tracker.moeking.me:6969/announce 0 0
    udp://tracker.torrent.eu.org:451/announce 0 0
    udp://open.stealth.si:80/announce 0 0
    udp://tracker.openbittorrent.com:80/announce 0 0
    udp://tracker4.itzmx.com:2710/announce 0 0
    udp://retracker.lanta-net.ru:2710/announce 0 0
    • InfoHash: D3C207959BFA84AA093A7332C7778900FB0CBA14
    • Last Updated: Jan 24, 2022
    • File Count: 1
    • File Category: 2
    • Tags: Sci-Fi, Horror, Action, Movies, h.264/x264
    This Torrent is seen on

    The Meg 2018 720p HDTC x264 [MW]

    Source: 1337x

    Uploaded By: moviezworldz





    General
    Format : Matroska
    Format version : Version 4 / Version 2
    File size : 970 MiB
    Duration : 1 h 41 min
    Overall bit rate : 1 332 kb/s

    Video
    ID : 1
    Format : AVC
    Format/Info : Advanced Video Codec
    Format profile : [email protected]
    Format settings : CABAC / 4 Ref Frames
    Format settings, CABAC : Yes
    Format settings, RefFrames : 4 frames
    Codec ID : V_MPEG4/ISO/AVC
    Duration : 1 h 41 min
    Bit rate : 1 200 kb/s
    Width : 1 280 pixels
    Height : 556 pixels
    Display aspect ratio : 2.35:1
    Frame rate mode : Constant
    Frame rate : 30.000 FPS
    Color space : YUV
    Chroma subsampling : 4:2:0
    Bit depth : 8 bits
    Scan type : Progressive
    Bits/(Pixel*Frame) : 0.056
    Stream size : 874 MiB (90%)
    Writing library : x264 core 155 r2901 7d0ff22
    Default : Yes
    Forced : No

    Audio
    ID : 2
    Format : AAC
    Format/Info : Advanced Audio Codec
    Format profile : LC
    Codec ID : A_AAC-2
    Duration : 1 h 41 min
    Bit rate : 129 kb/s
    Channel(s) : 2 channels
    Channel positions : Front: L R
    Sampling rate : 48.0 kHz
    Frame rate : 46.875 FPS (1024 SPF)
    Compression mode : Lossy
    Stream size : 93.8 MiB (10%)
    Language : English
    Default : Yes
    Forced : No


    Click To Enlarge Image


    Comments (0)
     

    Write your comment

    Did you like this torrent? [Optional]