message

    Power (2014) Season 4 S04 (1080p BluRay x265 HEVC 10bit DD 5.1 Vyndros)

    Likes 0 Dislikes 0
    Seeders 5
    Leechers 1
    File Size 10.9 GB
    Downloads 1118
    Uploaded Feb 22, 2021
    Files
    Trackers
    More Info
    FolderPower (2014) Season 4 S04 (1080p BluRay x265 HEVC 10bit DD 5.1 Vyndros)
    FilePower.S04E01.When.I.Get.Out.1080p.10bit.BluRay.DD5.1.HEVC-Vyndros.mkv - 1.03 GB
    FilePower.S04E02.Things.Are.Going.to.Get.Worse.1080p.10bit.BluRay.DD5.1.HEVC-Vyndros.mkv - 1.16 GB
    FilePower.S04E03.The.Kind.of.Man.You.Are.1080p.10bit.BluRay.DD5.1.HEVC-Vyndros.mkv - 1.04 GB
    FilePower.S04E04.We're.in.This.Together.1080p.10bit.BluRay.DD5.1.HEVC-Vyndros.mkv - 1.08 GB
    FilePower.S04E05.Don't.Thank.Me.1080p.10bit.BluRay.DD5.1.HEVC-Vyndros.mkv - 1.22 GB
    FilePower.S04E06.New.Man.1080p.10bit.BluRay.DD5.1.HEVC-Vyndros.mkv - 1.02 GB
    FilePower.S04E07.You.Lied.to.My.Face.1080p.10bit.BluRay.DD5.1.HEVC-Vyndros.mkv - 1.09 GB
    FilePower.S04E08.It's.Done.1080p.10bit.BluRay.DD5.1.HEVC-Vyndros.mkv - 1.11 GB
    FilePower.S04E09.That.Ain't.Me.1080p.10bit.BluRay.DD5.1.HEVC-Vyndros.mkv - 1.06 GB
    FilePower.S04E10.You.Can't.Fix.This.1080p.10bit.BluRay.DD5.1.HEVC-Vyndros.mkv - 1.08 GB
    Tracker Seeder Leecher
    udp://tracker.bitsearch.to:1337/announce 0 0
    udp://tracker.opentrackr.org:1337/announce 2 1
    udp://tracker.moeking.me:6969/announce 0 0
    udp://ipv4.tracker.harry.lu:80/announce 1 0
    udp://tracker.openbittorrent.com:80/announce 0 0
    udp://tracker.torrent.eu.org:451/announce 5 0
    udp://open.stealth.si:80/announce 5 0
    udp://p4p.arenabg.com:1337/announce 1 0
    udp://tracker4.itzmx.com:2710/announce 0 0
    udp://retracker.lanta-net.ru:2710/announce 1 0
    udp://tracker.tiny-vps.com:6969/announce 5 0
    udp://exodus.desync.com:6969/announce 5 0
    udp://explodie.org:6969/announce 1 0
    udp://tracker.internetwarriors.net:1337/announce 1 0
    • InfoHash: 842964E890FEA1E743A256DB2940374BBF121988
    • Last Updated: Aug 8, 2021
    • File Count: 10
    • File Category: 3
    • Tags: crime, drama, action, TV, HEVC/x265
    This Torrent is seen on

    Power (2014) Season 4 S04 (1080p BluRay x265 HEVC 10bit DD 5.1 Vyndros)

    Source: 1337x

    Uploaded By: Vyndros




    Media Information

    Code:
    General
    Format : Matroska
    Format version : Version 4 / Version 2
    File size : 970 MiB
    Duration : 55 min 3 s
    Overall bit rate : 2 464 kb/s
    Movie name : Power S04E06 New Man
    Encoded date : UTC 2020-07-17 19:54:59
    Writing application : mkvmerge v47.0.0 ('Black Flag') 64-bit
    Writing library : libebml v1.3.10 + libmatroska v1.5.2
    Writing frontend : StaxRip v1.7.0.6

    Video
    ID : 1
    Format : HEVC
    Format/Info : High Efficiency Video Coding
    Format profile : Main [email protected]@Main
    Codec ID : V_MPEGH/ISO/HEVC
    Duration : 55 min 3 s
    Bit rate : 1 997 kb/s
    Width : 1 920 pixels
    Height : 1 080 pixels
    Display aspect ratio : 16:9
    Frame rate mode : Constant
    Frame rate : 23.976 (24000/1001) FPS
    Color space : YUV
    Chroma subsampling : 4:2:0
    Bit depth : 10 bits
    Bits/(Pixel*Frame) : 0.040
    Stream size : 787 MiB (81%)
    Writing library : x265 3.4+1-7b120308dc64:[Windows][MSVC 1926][64 bit] 10bit
    Encoding settings : cpuid=1111039 / frame-threads=2 / numa-pools=4 / wpp / no-pmode / no-pme / no-psnr / ssim / log-level=2 / input-csp=1 / input-res=1920x1080 / interlace=0 / total-frames=79201 / level-idc=0 / high-tier=1 / uhd-bd=0 / ref=3 / no-allow-non-conformance / no-repeat-headers / annexb / no-aud / no-hrd / info / hash=0 / no-temporal-layers / open-gop / min-keyint=23 / keyint=250 / gop-lookahead=0 / bframes=8 / b-adapt=2 / b-pyramid / bframe-bias=0 / rc-lookahead=80 / lookahead-slices=6 / scenecut=40 / hist-scenecut=0 / radl=0 / no-splice / no-intra-refresh / ctu=64 / min-cu-size=8 / no-rect / no-amp / max-tu-size=32 / tu-inter-depth=1 / tu-intra-depth=1 / limit-tu=0 / rdoq-level=0 / dynamic-rd=0.00 / no-ssim-rd / signhide / no-tskip / nr-intra=0 / nr-inter=0 / no-constrained-intra / no-strong-intra-smoothing / max-merge=5 / limit-refs=1 / no-limit-modes / me=3 / subme=5 / merange=57 / temporal-mvp / no-frame-dup / no-hme / weightp / no-weightb / no-analyze-src-pics / deblock=0:0 / sao / no-sao-non-deblock / rd=3 / selective-sao=4 / early-skip / no-rskip / no-fast-intra / no-tskip-fast / no-cu-lossless / b-intra / no-splitrd-skip / rdpenalty=0 / psy-rd=2.00 / psy-rdoq=0.00 / no-rd-refine / no-lossless / cbqpoffs=0 / crqpoffs=0 / rc=crf / crf=20.0 / qcomp=0.60 / qpstep=4 / stats-write=0 / stats-read=0 / ipratio=1.40 / pbratio=1.30 / aq-mode=3 / aq-strength=1.00 / cutree / zone-count=0 / no-strict-cbr / qg-size=32 / no-rc-grain / qpmax=69 / qpmin=0 / no-const-vbv / sar=0 / overscan=0 / videoformat=5 / range=0 / colorprim=2 / transfer=2 / colormatrix=2 / chromaloc=0 / display-window=0 / cll=0,0 / min-luma=0 / max-luma=1023 / log2-max-poc-lsb=8 / vui-timing-info / vui-hrd-info / slices=1 / no-opt-qp-pps / no-opt-ref-list-length-pps / no-multi-pass-opt-rps / scenecut-bias=0.05 / hist-threshold=0.01 / no-opt-cu-delta-qp / no-aq-motion / no-hdr10 / no-hdr10-opt / no-dhdr10-opt / no-idr-recovery-sei / analysis-reuse-level=0 / analysis-save-reuse-level=0 / analysis-load-reuse-level=0 / scale-factor=0 / refine-intra=0 / refine-inter=0 / refine-mv=1 / refine-ctu-distortion=0 / no-limit-sao / ctu-info=0 / no-lowpass-dct / refine-analysis-type=0 / copy-pic=1 / max-ausize-factor=1.0 / no-dynamic-refine / no-single-sei / no-hevc-aq / no-svt / no-field / qp-adaptation-range=1.00 / no-scenecut-aware-qpconformance-window-offsets / right=0 / bottom=0 / decoder-max-rate=0
    Default : Yes
    Forced : No

    Audio
    ID : 2
    Format : AC-3
    Format/Info : Audio Coding 3
    Mode extension : CM (complete main)
    Format settings, Endianness : Big
    Codec ID : A_AC3
    Duration : 55 min 3 s
    Bit rate mode : Constant
    Bit rate : 448 kb/s
    Channel(s) : 6 channels
    Channel positions : Front: L C R, Side: L R, LFE
    Sampling rate : 48.0 kHz
    Frame rate : 31.250 FPS (1536 spf)
    Bit depth : 16 bits
    Compression mode : Lossy
    Stream size : 176 MiB (18%)
    Title : English / Dolby Digital / 5.1 ch / 448kb/s / AC-3 / 48 kHz / 16-bit
    Language : English
    Default : Yes
    Forced : No

    Subtitle
    ID : 3
    Format : PGS
    Muxing mode : zlib
    Codec ID : S_HDMV/PGS
    Codec ID/Info : Picture based subtitle format used on BDs/HD-DVDs
    Duration : 54 min 44 s
    Bit rate : 42.6 kb/s
    Count of elements : 1858
    Stream size : 16.7 MiB (2%)
    Language : English
    Default : No
    Forced : No



    Source Information

    Code:
    Release:
    BluRay Remux

    Comments (0)
     

    Write your comment

    Did you like this torrent? [Optional]