message

    Operazione Avalanche (2016).H264.ita.eng.sub.ita.iCV-MIRCrew.mkv

    Likes 0 Dislikes 0
    Seeders 1
    Leechers 0
    File Size 1.54 GB
    Downloads 3
    Uploaded Oct 22, 2018
    Files
    Trackers
    More Info
    FileOperazione Avalanche (2016).H264.ita.eng.sub.ita.iCV-MIRCrew.mkv
    Tracker Seeder Leecher
    udp://tracker.bitsearch.to:1337/announce 0 0
    udp://tracker.opentrackr.org:1337/announce 1 0
    udp://ipv4.tracker.harry.lu:80/announce 0 0
    udp://tracker.moeking.me:6969/announce 0 0
    udp://tracker.openbittorrent.com:80/announce 0 0
    udp://tracker.torrent.eu.org:451/announce 0 0
    udp://open.stealth.si:80/announce 0 0
    udp://tracker4.itzmx.com:2710/announce 0 0
    udp://retracker.lanta-net.ru:2710/announce 0 0
    udp://tracker.tiny-vps.com:6969/announce 0 0
    udp://exodus.desync.com:6969/announce 0 0
    udp://explodie.org:6969/announce 0 0
    udp://tracker.internetwarriors.net:1337/announce 0 0
    • InfoHash: D27B5363330D45E3F31E0728C4D592B46D3E9261
    • Last Updated: Aug 7, 2021
    • File Count: 1
    • File Category: 2
    • Tags: Movies, h.264/x264
    Movie Information

    Lehiyot Ita

    TV Series
    Noa Holander has it all, she's beautiful, she models, she acts for fun and is one of the richest women in Israel. Over the past two years, she has had a highly publicized affair with Pete Evans, one of Hollywood's biggest stars. He's handsome, he's successful, he's rich - it's all perfect. And then they break up. According to the tabloids, he cheated on her. Amos Dahari is a 28-year-old guy still living with his parents in their tiny, cramped apartment. He works at the family business - a combination mini-market and pita bakery. He spends most of his days in front of the oven, barely making minimum wage. When he's not working, he's busy getting an earful from Vanessa - his girlfriend of nine years - who can't wait for him to whip out a ring and propose to her. Tonight, Vanessa decides she's going to do it for him. They both - Noa and Amos - arrive at the same restaurant that night, the snazziest place in Tel Aviv. She's there to get over the breakup, and he's there to appease his ...
    Rating: Rating: 8/10
    time Duration: 30 Minutes
    Calender Release Date: Nov 25, 2013
    Country: Israel
    This Torrent is seen on

    Operation Avalanche - Operazione Avalanche (2016).H264.Italian.English.Ac3.5.1.sub.ita.iCV-MIRCrew

    Source: 1337x

    Uploaded By: robbyrs

    Operation Avalanche - Operazione Avalanche (2016).H264.Italian.English.Ac3.5.1.sub.ita.iCV-MIRCrew





    My release is always in double track audio italian and Original audio
    for select it use VLC or dvd player home
    not use wmp

    Operazione Avalanche - Operation Avalanche (2016)



    Genere: Thriller
    Durata: 94 minuti
    Regista: Matthew Johnson
    Uscita ORIG: 16 settembre 2016 (USA)



    Nel 1967 quattro agenti sotto copertura della Cia vengono inviati alla Nasa per essere assunti dalla troupe di un documentario. Quello che scopriranno porterà a una delle più grandi cospirazioni della storia americana.



    In 1967, four undercover CIA agents were sent to NASA posing as a documentary film crew. What they discovered led to one of the biggest conspiracies in American history.




    [spoiler]
    General
    Unique ID : 326664139747048100552270217595711027524 (0xF5C1398FBEDF152A488C52EC8A8A7944)
    Complete name : Operazione Avalanche (2016).H264.ita.eng.sub.ita.iCV-MIRCrew.mkv
    Format : Matroska
    Format version : Version 2
    File size : 1.43 GiB
    Duration : 1h 34mn
    Overall bit rate : 2 181 Kbps
    Movie name : VISIT www.icv-crew.org
    Encoded date : UTC 2017-02-02 22:52:31
    Writing application : Lavf54.63.100
    Writing library : Lavf54.63.100
    COPYRIGHT : robbyrs

    Video
    ID : 1
    Format : AVC
    Format/Info : Advanced Video Codec
    Format profile : [email protected]
    Format settings, CABAC : Yes
    Format settings, ReFrames : 2 frames
    Codec ID : V_MPEG4/ISO/AVC
    Duration : 1h 34mn
    Bit rate : 1 280 Kbps
    Width : 720 pixels
    Height : 384 pixels
    Display aspect ratio : 1.904
    Original display aspect ratio : 1.905
    Frame rate mode : Variable
    Frame rate : 23.976 fps
    Color space : YUV
    Chroma subsampling : 4:2:0
    Bit depth : 8 bits
    Scan type : Progressive
    Bits/(Pixel*Frame) : 0.193
    Stream size : 836 MiB (57%)
    Writing library : x264 core 130 r2273
    Encoding settings : cabac=1 / ref=2 / deblock=1:0:0 / analyse=0x1:0x131 / me=hex / subme=7 / psy=1 / psy_rd=1.00:0.00 / mixed_ref=0 / me_range=16 / chroma_me=1 / trellis=1 / 8x8dct=0 / cqm=0 / deadzone=21,11 / fast_pskip=1 / chroma_qp_offset=-2 / threads=12 / lookahead_threads=2 / sliced_threads=0 / nr=0 / decimate=1 / interlaced=0 / bluray_compat=0 / constrained_intra=0 / bframes=3 / b_pyramid=0 / b_adapt=1 / b_bias=0 / direct=3 / weightb=1 / open_gop=0 / weightp=2 / keyint=230 / keyint_min=23 / scenecut=40 / intra_refresh=0 / rc_lookahead=40 / rc=2pass / mbtree=1 / bitrate=1280 / ratetol=1.0 / qcomp=0.60 / qpmin=10 / qpmax=69 / qpstep=4 / cplxblur=20.0 / qblur=0.5 / vbv_maxrate=24000 / vbv_bufsize=24000 / nal_hrd=none / ip_ratio=1.40 / aq=1:1.00
    Language : Italian
    Default : Yes
    Forced : No
    DURATION : 01:34:04.931000000
    NUMBER_OF_FRAMES : 135343
    NUMBER_OF_BYTES : 7081580233
    _STATISTICS_WRITING_APP : mkvmerge v8.7.0 ('All of the above') 64bit
    _STATISTICS_WRITING_DATE_UTC : 2017-02-02 08:38:24
    _STATISTICS_TAGS : BPS DURATION NUMBER_OF_FRAMES NUMBER_OF_BYTES

    Audio #1
    ID : 2
    Format : AC-3
    Format/Info : Audio Coding 3
    Mode extension : CM (complete main)
    Codec ID : A_AC3
    Duration : 1h 34mn
    Bit rate mode : Constant
    Bit rate : 448 Kbps
    Channel(s) : 6 channels
    Channel positions : Front: L C R, Side: L R, LFE
    Sampling rate : 48.0 KHz
    Bit depth : 16 bits
    Compression mode : Lossy
    Delay relative to video : 1mn 5s
    Stream size : 301 MiB (21%)
    Title : AC3 ITA
    Language : Italian
    Default : Yes
    Forced : No
    DURATION : 01:34:04.960000000
    NUMBER_OF_FRAMES : 176405
    NUMBER_OF_BYTES : 316117760
    _STATISTICS_WRITING_APP : mkvmerge v8.7.0 ('All of the above') 64bit
    _STATISTICS_WRITING_DATE_UTC : 2017-02-02 08:38:24
    _STATISTICS_TAGS : BPS DURATION NUMBER_OF_FRAMES NUMBER_OF_BYTES

    Audio #2
    ID : 3
    Format : AC-3
    Format/Info : Audio Coding 3
    Mode extension : CM (complete main)
    Codec ID : A_AC3
    Duration : 1h 34mn
    Bit rate mode : Constant
    Bit rate : 448 Kbps
    Channel(s) : 6 channels
    Channel positions : Front: L C R, Side: L R, LFE
    Sampling rate : 48.0 KHz
    Bit depth : 16 bits
    Compression mode : Lossy
    Delay relative to video : 1mn 5s
    Stream size : 301 MiB (21%)
    Title : AC3 ENG
    Language : English
    Default : No
    Forced : No
    DURATION : 01:34:04.960000000
    NUMBER_OF_FRAMES : 176405
    NUMBER_OF_BYTES : 451596800
    _STATISTICS_WRITING_APP : mkvmerge v8.7.0 ('All of the above') 64bit
    _STATISTICS_WRITING_DATE_UTC : 2017-02-02 08:38:24
    _STATISTICS_TAGS : BPS DURATION NUMBER_OF_FRAMES NUMBER_OF_BYTES

    Text #1
    ID : 4
    Format : UTF-8
    Codec ID : S_TEXT/UTF8
    Codec ID/Info : UTF-8 Plain Text
    Title : FORCED
    Language : Italian
    Default : Yes
    Forced : No
    DURATION : 01:32:38.478000000
    NUMBER_OF_FRAMES : 69
    NUMBER_OF_BYTES : 2947
    _STATISTICS_WRITING_APP : mkvmerge v8.7.0 ('All of the above') 64bit
    _STATISTICS_WRITING_DATE_UTC : 2017-02-02 08:38:24
    _STATISTICS_TAGS : BPS DURATION NUMBER_OF_FRAMES NUMBER_OF_BYTES

    Text #2
    ID : 5
    Format : UTF-8
    Codec ID : S_TEXT/UTF8
    Codec ID/Info : UTF-8 Plain Text
    Title : REGULAR
    Language : Italian
    Default : No
    Forced : No
    DURATION : 01:32:38.478000000
    NUMBER_OF_FRAMES : 1124
    NUMBER_OF_BYTES : 42337
    _STATISTICS_WRITING_APP : mkvmerge v8.7.0 ('All of the above') 64bit
    _STATISTICS_WRITING_DATE_UTC : 2017-02-02 08:38:24
    _STATISTICS_TAGS : BPS DURATION NUMBER_OF_FRAMES NUMBER_OF_BYTES

    Menu
    00:00:00.000 : :00:00:00.000
    00:07:05.342 : :00:07:05.342
    00:14:28.201 : :00:14:28.201
    00:20:13.838 : :00:20:13.838
    00:29:27.099 : :00:29:27.099
    00:39:02.590 : :00:39:02.590
    00:50:56.804 : :00:50:56.804
    00:59:52.756 : :00:59:52.756
    01:08:53.129 : :01:08:53.129
    01:16:19.950 : :01:16:19.950
    01:23:27.706 : :01:23:27.706


    [/spoiler]



    Comments (0)
     

    Write your comment

    Did you like this torrent? [Optional]