message

    [MovCr.com] - Jurassic World 2 (2018) - 720p - Proper - HDRip - x264 - Line Auds [Hindi + Tamil + Telugu + Eng] - 1GB - MovCr.mkv

    Likes 0 Dislikes 0
    Seeders 0
    Leechers 0
    File Size 1.12 GB
    Downloads 0
    Uploaded Oct 22, 2018
    Files
    Trackers
    More Info
    File[MovCr.com] - Jurassic World 2 (2018) - 720p - Proper - HDRip - x264 - Line Auds [Hindi + Tamil + Telugu + Eng] - 1GB - MovCr.mkv
    Tracker Seeder Leecher
    udp://tracker.bitsearch.to:1337/announce 0 0
    udp://tracker.opentrackr.org:1337/announce 0 0
    udp://ipv4.tracker.harry.lu:80/announce 0 0
    udp://tracker.moeking.me:6969/announce 0 0
    udp://tracker.torrent.eu.org:451/announce 0 0
    udp://open.stealth.si:80/announce 0 0
    udp://tracker.openbittorrent.com:80/announce 0 0
    udp://tracker4.itzmx.com:2710/announce 0 0
    udp://retracker.lanta-net.ru:2710/announce 0 0
    udp://tracker.tiny-vps.com:6969/announce 0 0
    udp://exodus.desync.com:6969/announce 0 0
    udp://explodie.org:6969/announce 0 0
    udp://tracker.internetwarriors.net:1337/announce 0 0
    • InfoHash: DFBC59A17880F9F97C33CF3F7AD20E62701964DC
    • Last Updated: Jan 24, 2022
    • File Count: 1
    • File Category: 2
    • Tags: Movies, HD
    Movie Information

    Jurassic World

    Movie
    Twenty-two years after the original Jurassic Park failed, the new park, also known as Jurassic World, is open for business. After years of studying genetics, the scientists on the park genetically engineer a new breed of dinosaur, the Indominus Rex. When everything goes horribly wrong, will our heroes make it off the island?
    Rating: Rating: 7/10
    time Duration: 124 Minutes
    Calender Release Date: Jun 11, 2015
    Country: USA
    This Torrent is seen on

    Jurassic World Fallen Kingdom (2018) - 720p - Proper - HDRip - x264 - Line Auds [Hindi + Tamil + Telugu + Eng] - 1GB - MovCr

    Source: 1337x

    Uploaded By: MovCr

    https://movcr.com

    Jurassic World Fallen Kingdom (2018) - 720p - Proper - HDRip - x264 - Line Auds [Hindi + Tamil + Telugu + Eng] - 1GB - MovCr



    General
    Unique ID : 239658015149297911082843057233914676551 (0xB44C746C62E708479314E045D336C547)
    Complete name : D:\HDFRAEN1134\[MovCr.com] - Jurassic World 2 (2018) - 720p - Proper - HDRip - x264 - Line Auds [Hindi + Tamil + Telugu + Eng] - 1GB - MovCr.mkv
    Format : Matroska
    Format version : Version 4 / Version 2
    File size : 1.05 GiB
    Duration : 2 h 8 min
    Overall bit rate mode : Variable
    Overall bit rate : 1 168 kb/s
    Movie name : www.MovCr.com
    Encoded date : UTC 2018-09-04 06:40:12
    Writing application : mkvmerge v25.0.0 ('Prog Noir') 64-bit
    Writing library : libebml v1.3.6 + libmatroska v1.4.9

    Video
    ID : 1
    Format : AVC
    Format/Info : Advanced Video Codec
    Format profile : [email protected]
    Format settings : CABAC / 4 Ref Frames
    Format settings, CABAC : Yes
    Format settings, ReFrames : 4 frames
    Codec ID : V_MPEG4/ISO/AVC
    Duration : 2 h 8 min
    Bit rate : 790 kb/s
    Width : 1 280 pixels
    Height : 536 pixels
    Display aspect ratio : 2.40:1
    Frame rate mode : Constant
    Frame rate : 23.976 (24000/1001) FPS
    Color space : YUV
    Chroma subsampling : 4:2:0
    Bit depth : 8 bits
    Scan type : Progressive
    Bits/(Pixel*Frame) : 0.048
    Stream size : 725 MiB (68%)
    Title : www.MovCr.com
    Writing library : x264 core 155 r2901 7d0ff22
    Encoding settings : cabac=1 / ref=3 / deblock=1:0:0 / analyse=0x3:0x113 / me=hex / subme=7 / psy=1 / psy_rd=1.00:0.00 / mixed_ref=1 / me_range=16 / chroma_me=1 / trellis=1 / 8x8dct=1 / cqm=0 / deadzone=21,11 / fast_pskip=1 / chroma_qp_offset=-2 / threads=17 / lookahead_threads=2 / sliced_threads=0 / nr=0 / decimate=1 / interlaced=0 / bluray_compat=0 / constrained_intra=0 / bframes=3 / b_pyramid=2 / b_adapt=1 / b_bias=0 / direct=1 / weightb=1 / open_gop=0 / weightp=2 / keyint=240 / keyint_min=23 / scenecut=40 / intra_refresh=0 / rc_lookahead=40 / rc=2pass / mbtree=1 / bitrate=790 / ratetol=1.0 / qcomp=0.60 / qpmin=0 / qpmax=69 / qpstep=4 / cplxblur=20.0 / qblur=0.5 / ip_ratio=1.40 / aq=1:1.00
    Language : English
    Default : Yes
    Forced : No

    Audio #1
    ID : 2
    Format : MPEG Audio
    Format version : Version 1
    Format profile : Layer 3
    Format settings : Joint stereo / MS Stereo
    Codec ID : A_MPEG/L3
    Codec ID/Hint : MP3
    Duration : 2 h 8 min
    Bit rate mode : Variable
    Bit rate : 96.0 kb/s
    Channel(s) : 2 channels
    Sampling rate : 48.0 kHz
    Frame rate : 41.667 FPS (1152 SPF)
    Compression mode : Lossy
    Stream size : 90.3 MiB (8%)
    Title : www.MovCr.com
    Writing library : LAME3.99r
    Encoding settings : -m j -V 4 -q 3 -lowpass 15.1 --abr 96
    Language : Hindi
    Default : Yes
    Forced : No

    Audio #2
    ID : 3
    Format : MPEG Audio
    Format version : Version 2
    Format profile : Layer 3
    Format settings : Joint stereo / MS Stereo
    Codec ID : A_MPEG/L3
    Codec ID/Hint : MP3
    Duration : 2 h 8 min
    Bit rate mode : Variable
    Bit rate : 96.0 kb/s
    Channel(s) : 2 channels
    Sampling rate : 16.0 kHz
    Frame rate : 27.778 FPS (576 SPF)
    Compression mode : Lossy
    Stream size : 85.9 MiB (8%)
    Title : www.MovCr.com
    Writing library : LAME3.99r
    Encoding settings : -m j -V 4 -q 3 -lowpass 8 --abr 96
    Language : Telugu
    Default : No
    Forced : No

    Audio #3
    ID : 4
    Format : MPEG Audio
    Format version : Version 2
    Format profile : Layer 3
    Format settings : Joint stereo / MS Stereo
    Codec ID : A_MPEG/L3
    Codec ID/Hint : MP3
    Duration : 2 h 8 min
    Bit rate mode : Variable
    Bit rate : 90.7 kb/s
    Nominal bit rate : 96.0 kb/s
    Channel(s) : 2 channels
    Sampling rate : 16.0 kHz
    Frame rate : 27.778 FPS (576 SPF)
    Compression mode : Lossy
    Stream size : 83.3 MiB (8%)
    Title : www.MovCr.com
    Writing library : LAME3.99r
    Encoding settings : -m j -V 4 -q 3 -lowpass 8 --abr 96
    Language : Tamil
    Default : No
    Forced : No

    Audio #4
    ID : 5
    Format : MPEG Audio
    Format version : Version 2
    Format profile : Layer 3
    Format settings : Joint stereo / MS Stereo
    Codec ID : A_MPEG/L3
    Codec ID/Hint : MP3
    Duration : 2 h 8 min
    Bit rate mode : Variable
    Bit rate : 96.0 kb/s
    Channel(s) : 2 channels
    Sampling rate : 16.0 kHz
    Frame rate : 27.778 FPS (576 SPF)
    Compression mode : Lossy
    Stream size : 84.7 MiB (8%)
    Title : www.MovCr.com
    Writing library : LAME3.99r
    Encoding settings : -m j -V 4 -q 3 -lowpass 8 --abr 96
    Language : English
    Default : No
    Forced : No







    Comments (0)
     

    Write your comment

    Did you like this torrent? [Optional]