message

    Lucy 2014 x264 720p Esub BluRay Dual Audio English Hindi GOPISAHI.mkv

    Likes 0 Dislikes 0
    Seeders 0
    Leechers 0
    File Size 666 MB
    Downloads 0
    Uploaded Oct 22, 2018
    Files
    Trackers
    More Info
    FileLucy 2014 x264 720p Esub BluRay Dual Audio English Hindi GOPISAHI.mkv
    Tracker Seeder Leecher
    udp://tracker.bitsearch.to:1337/announce 0 0
    udp://tracker.opentrackr.org:1337/announce 0 0
    udp://tracker.moeking.me:6969/announce 0 0
    udp://tracker.torrent.eu.org:451/announce 0 0
    udp://tracker.openbittorrent.com:80/announce 0 0
    udp://open.stealth.si:80/announce 0 0
    udp://tracker4.itzmx.com:2710/announce 0 0
    udp://retracker.lanta-net.ru:2710/announce 0 0
    udp://exodus.desync.com:6969/announce 0 0
    udp://explodie.org:6969/announce 0 0
    udp://tracker.internetwarriors.net:1337/announce 0 0
    • InfoHash: 38B607D01410ADDC795F8D7DFF825012EE1E591D
    • Last Updated: Jan 24, 2022
    • File Count: 1
    • File Category: 2
    • Tags: Movies, Dubs/Dual Audio
    This Torrent is seen on

    Lucy 2014 x264 720p Esub BluRay Dual Audio English Hindi GOPISAHI

    Source: 1337x

    Uploaded By: PENDUDESI


    https://www.gopisahi.pw/

    Format : Matroska

    Format version : Version 4 / Version 2

    File size : 635 MiB

    Duration : 1 h 29 min

    Overall bit rate : 993 kb/s

    Movie name : Lucy 2014 GOPISAHI


    Video

    Format : AVC

    Codec ID : V_MPEG4/ISO/AVC

    Duration : 1 h 29 min

    Bit rate : 799 kb/s

    Width : 1 280 pixels

    Height : 536 pixels

    Display aspect ratio : 2.40:1

    Frame rate mode : Constant

    Frame rate : 23.976 (24000/1001) FPS

    Color space : YUV

    Chroma subsampling : 4:2:0

    Bit depth : 8 bits

    Scan type : Progressive

    Bits/(Pixel*Frame) : 0.049

    Stream size : 510 MiB (80%)

    Title : GOPISAHI

    Writing library : x264 core 148 r2708 86b7198


    Audio #1

    Format : AAC

    Duration : 1 h 29 min

    Bit rate : 96.0 kb/s

    Channel(s) : 2 channels

    Channel positions : Front: L R

    Sampling rate : 48.0 kHz

    Frame rate : 46.875 FPS (1024 SPF)

    Compression mode : Lossy

    Delay relative to video : 778 ms

    Stream size : 61.4 MiB (10%)

    Title : GOPISAHI

    Language : Hindi


    Audio #2

    Format : AAC

    Duration : 1 h 29 min

    Bit rate : 96.0 kb/s

    Channel(s) : 2 channels

    Channel positions : Front: L R

    Sampling rate : 48.0 kHz

    Frame rate : 46.875 FPS (1024 SPF)

    Compression mode : Lossy

    Delay relative to video : -21 ms

    Stream size : 61.4 MiB (10%)

    Title : GOPISAHI

    Language : English


    Text

    Language : English

    Comments (0)
     

    Write your comment

    Did you like this torrent? [Optional]