message

    IT 2017 Movies HC 720p HDRip XviD AAC with Sample ☻rDX☻

    Likes 0 Dislikes 0
    Seeders 0
    Leechers 0
    File Size 1.16 GB
    Downloads 0
    Uploaded Oct 22, 2018
    Files
    Trackers
    More Info
    FolderIT 2017 Movies HC 720p HDRip XviD AAC with Sample ☻rDX☻
    FileSample ~ IT 2017 Movies HC 720p HDRip XviD AAC ☻rDX☻.mkv
    FileIT 2017 Movies HC 720p HDRip XviD AAC ☻rDX☻.mkv
    Tracker Seeder Leecher
    udp://tracker.bitsearch.to:1337/announce 0 0
    udp://tracker.opentrackr.org:1337/announce 0 0
    udp://tracker.moeking.me:6969/announce 0 0
    udp://tracker.openbittorrent.com:80/announce 0 0
    udp://open.stealth.si:80/announce 0 0
    udp://tracker.torrent.eu.org:451/announce 0 0
    udp://tracker4.itzmx.com:2710/announce 0 0
    udp://retracker.lanta-net.ru:2710/announce 0 0
    udp://exodus.desync.com:6969/announce 0 0
    udp://explodie.org:6969/announce 0 0
    • InfoHash: FE902C46E59E3F9EC567985CFABC73401CDB6F24
    • Last Updated: Aug 7, 2021
    • File Count: 2
    • File Category: 2
    • Tags: Movies, HD
    This Torrent is seen on

    IT 2017 Movies HC 720p HDRip XviD AAC with Sample ☻rDX☻

    Source: 1337x

    Uploaded By: nehalpuja

    IT 2017 Movies HC 720p HDRip XviD AAC with Sample ☻rDX☻
    ===============================================================================================

    SCREEN SHOTS:



    or

    http://postimage.co.nr/2017/10/popular/1.html

    File size : 1.07 GiB
    Duration : 2 h 12 min
    Overall bit rate : 1 154 kb/s
    Movie name : IT 2017 Movies HC 720p HDRip XviD AAC ☻rDX☻

    Video
    ID : 1
    Format : AVC
    Format/Info : Advanced Video Codec
    Format profile : [email protected]
    Format settings, CABAC : Yes
    Format settings, ReFrames : 5 frames
    Codec ID : V_MPEG4/ISO/AVC
    Duration : 2 h 12 min
    Bit rate : 1 025 kb/s
    Width : 1 280 pixels
    Height : 534 pixels
    Display aspect ratio : 2.40:1
    Frame rate mode : Constant
    Frame rate : 30.000 FPS
    Color space : YUV
    Chroma subsampling : 4:2:0
    Bit depth : 8 bits
    Scan type : Progressive
    Bits/(Pixel*Frame) : 0.050
    Stream size : 950 MiB (87%)
    Title : ☻rDX☻
    Writing library : XviD

    Audio
    ID : 2
    Format : MPEG Audio
    Format version : Version 1
    Format profile : Layer 3
    Mode : Joint stereo
    Mode extension : MS Stereo
    Codec ID : A_MPEG/L3
    Codec ID/Hint : MP3
    Duration : 2 h 12 min
    Bit rate mode : Constant
    Bit rate : 128 kb/s
    Channel(s) : 2 channels
    Sampling rate : 48.0 kHz
    Compression mode : Lossy
    Stream size : 121 MiB (11%)
    Title : ☻rDX☻
    Default : Yes
    Forced : No



    IMDB : http://www.imdb.com/title/tt1396484

    Comments (0)
     

    Write your comment

    Did you like this torrent? [Optional]