message

    Grimsby - Attenti a quell'altro (2016).H264.ita.eng.sub.ita.eng.iCV-MIRCrew.mkv

    Likes 0 Dislikes 0
    Seeders 1
    Leechers 2
    File Size 1.27 GB
    Downloads 9
    Uploaded Oct 22, 2018
    Files
    Trackers
    More Info
    FileGrimsby - Attenti a quell'altro (2016).H264.ita.eng.sub.ita.eng.iCV-MIRCrew.mkv
    Tracker Seeder Leecher
    udp://tracker.bitsearch.to:1337/announce 0 0
    udp://tracker.opentrackr.org:1337/announce 0 2
    udp://ipv4.tracker.harry.lu:80/announce 0 0
    udp://tracker.moeking.me:6969/announce 0 0
    udp://tracker.openbittorrent.com:80/announce 0 0
    udp://tracker.torrent.eu.org:451/announce 0 0
    udp://open.stealth.si:80/announce 0 0
    udp://tracker4.itzmx.com:2710/announce 0 0
    udp://retracker.lanta-net.ru:2710/announce 0 0
    udp://exodus.desync.com:6969/announce 0 0
    udp://explodie.org:6969/announce 0 0
    udp://tracker.internetwarriors.net:1337/announce 1 0
    • InfoHash: 61B67848444045244228CC8AEFAAAB4EE4A3E7F3
    • Last Updated: Aug 7, 2021
    • File Count: 1
    • File Category: 2
    • Tags: Movies, h.264/x264
    Movie Information

    Lehiyot Ita

    TV Series
    Noa Holander has it all, she's beautiful, she models, she acts for fun and is one of the richest women in Israel. Over the past two years, she has had a highly publicized affair with Pete Evans, one of Hollywood's biggest stars. He's handsome, he's successful, he's rich - it's all perfect. And then they break up. According to the tabloids, he cheated on her. Amos Dahari is a 28-year-old guy still living with his parents in their tiny, cramped apartment. He works at the family business - a combination mini-market and pita bakery. He spends most of his days in front of the oven, barely making minimum wage. When he's not working, he's busy getting an earful from Vanessa - his girlfriend of nine years - who can't wait for him to whip out a ring and propose to her. Tonight, Vanessa decides she's going to do it for him. They both - Noa and Amos - arrive at the same restaurant that night, the snazziest place in Tel Aviv. She's there to get over the breakup, and he's there to appease his ...
    Rating: Rating: 8/10
    time Duration: 30 Minutes
    Calender Release Date: Nov 25, 2013
    Country: Israel
    This Torrent is seen on

    The Brothers Grimsby - Grimsby - Attenti a quell altro (2016).H264.italian.english.sub.ita.eng.iCV-MIRCrew

    Source: 1337x

    Uploaded By: robbyrs

    The Brothers Grimsby - Grimsby - Attenti a quell altro (2016).H264.italian.english.sub.ita.eng.iCV-MIRCrew




    NO FOUND ONLY ORIGINAL RELEASE



    My release is always in double track audio italian and Original audio
    for select it use VLC or dvd player home
    not use wmp

    Grimsby - Attenti a quell'altro - The Brothers Grimsby (2016)



    DATA USCITA: 07 aprile 2016
    GENERE: Commedia , Azione
    ANNO: 2016
    REGIA: Louis Leterrier
    SCENEGGIATURA: Sacha Baron Cohen, Phil Johnston
    PRODUZIONE: Four by Two Films
    DISTRIBUZIONE: Warner Bros. Italia
    PAESE: USA
    DURATA: 83 Min



    Sacha Baron Cohen, Mark Strong, Annabelle Wallis, David Harewood, Johnny Vegas



    Nobby ha tutto quello che un abitante di Grimsby può desiderare - 9 bambini e una fidanzata che ama moltissimo. Nella sua vita manca solo una cosa: il fratello minore, Sebastian, da cui è stato separato fin dall'infanzia............................



    MI6's top assassin (Mark Strong) has a brother. Unfortunately for him, he's an English football supporter (Sacha Baron Cohen) from the town of Grimsby. Nobby has everything a man from the poor English fishing town of Grimsby could want - 9 children and the most attractive girlfriend in northern England (Rebel Wilson). There's only one thing missing in his life: his little brother, Sebastian. ..........................




    [spoiler]
    General
    Unique ID : 302025455237078633032839887142978854509 (0xE337FCA04A2DBE787C60F29C14CC1E6D)
    Complete name Grimsby - Attenti a quell'altro (2016).H264.ita.eng.sub.ita.eng.iCV-MIRCrew.mkv.61b67848444045244228cc8aefaaab4ee4a3e7f3\Grimsby - Attenti a quell'altro (2016).H264.ita.eng.sub.ita.eng.iCV-MIRCrew.mkv
    Format : Matroska
    Format version : Version 2
    File size : 1.18 GiB
    Duration : 1h 23mn
    Overall bit rate : 2 028 Kbps
    Movie name : www.icv-crew.org
    Encoded date : UTC 2016-08-03 17:04:27
    Writing application : Lavf54.63.100
    Writing library : Lavf54.63.100

    Video
    ID : 1
    Format : AVC
    Format/Info : Advanced Video Codec
    Format profile : [email protected]
    Format settings, CABAC : Yes
    Format settings, ReFrames : 2 frames
    Codec ID : V_MPEG4/ISO/AVC
    Duration : 1h 23mn
    Bit rate : 1 092 Kbps
    Nominal bit rate : 1 200 Kbps
    Width : 720 pixels
    Height : 300 pixels
    Display aspect ratio : 2.40:1
    Frame rate mode : Variable
    Frame rate : 23.976 fps
    Color space : YUV
    Chroma subsampling : 4:2:0
    Bit depth : 8 bits
    Scan type : Progressive
    Bits/(Pixel*Frame) : 0.211
    Stream size : 650 MiB (54%)
    Writing library : x264 core 130 r2273
    Encoding settings : cabac=1 / ref=2 / deblock=1:0:0 / analyse=0x1:0x131 / me=hex / subme=7 / psy=1 / psy_rd=1.00:0.00 / mixed_ref=0 / me_range=16 / chroma_me=1 / trellis=1 / 8x8dct=0 / cqm=0 / deadzone=21,11 / fast_pskip=1 / chroma_qp_offset=-2 / threads=12 / lookahead_threads=2 / sliced_threads=0 / nr=0 / decimate=1 / interlaced=0 / bluray_compat=0 / constrained_intra=0 / bframes=3 / b_pyramid=0 / b_adapt=1 / b_bias=0 / direct=3 / weightb=1 / open_gop=0 / weightp=2 / keyint=230 / keyint_min=23 / scenecut=40 / intra_refresh=0 / rc_lookahead=40 / rc=abr / mbtree=1 / bitrate=1200 / ratetol=1.0 / qcomp=0.60 / qpmin=10 / qpmax=69 / qpstep=4 / vbv_maxrate=24000 / vbv_bufsize=24000 / nal_hrd=none / ip_ratio=1.40 / aq=1:1.00
    Default : Yes
    Forced : No
    DURATION : 01:23:14.990000000
    NUMBER_OF_FRAMES : 119760
    NUMBER_OF_BYTES : 5492423217
    _STATISTICS_WRITING_APP : mkvmerge v9.3.1 ('Mask Machine') 32bit
    _STATISTICS_WRITING_DATE_UTC : 2016-07-26 11:59:24
    _STATISTICS_TAGS : BPS DURATION NUMBER_OF_FRAMES NUMBER_OF_BYTES

    Audio #1
    ID : 2
    Format : AC-3
    Format/Info : Audio Coding 3
    Mode extension : CM (complete main)
    Codec ID : A_AC3
    Duration : 1h 23mn
    Bit rate mode : Constant
    Bit rate : 448 Kbps
    Channel(s) : 6 channels
    Channel positions : Front: L C R, Side: L R, LFE
    Sampling rate : 48.0 KHz
    Bit depth : 16 bits
    Compression mode : Lossy
    Delay relative to video : 1mn 5s
    Stream size : 267 MiB (22%)
    Title : Ita. AC3 640 Kbps
    Language : Italian
    Default : No
    Forced : No
    DURATION : 01:23:15.008000000
    NUMBER_OF_FRAMES : 156094
    NUMBER_OF_BYTES : 399600640
    _STATISTICS_WRITING_APP : mkvmerge v9.3.1 ('Mask Machine') 32bit
    _STATISTICS_WRITING_DATE_UTC : 2016-07-26 11:59:24
    _STATISTICS_TAGS : BPS DURATION NUMBER_OF_FRAMES NUMBER_OF_BYTES

    Audio #2
    ID : 3
    Format : AC-3
    Format/Info : Audio Coding 3
    Mode extension : CM (complete main)
    Codec ID : A_AC3
    Duration : 1h 23mn
    Bit rate mode : Constant
    Bit rate : 448 Kbps
    Channel(s) : 6 channels
    Channel positions : Front: L C R, Side: L R, LFE
    Sampling rate : 48.0 KHz
    Bit depth : 16 bits
    Compression mode : Lossy
    Delay relative to video : 1mn 5s
    Stream size : 267 MiB (22%)
    Title : Eng. DTS 1510 Kbps
    Language : English
    Default : No
    Forced : No
    DURATION : 01:23:15.008000000
    NUMBER_OF_FRAMES : 468282
    NUMBER_OF_BYTES : 942184176
    _STATISTICS_WRITING_APP : mkvmerge v9.3.1 ('Mask Machine') 32bit
    _STATISTICS_WRITING_DATE_UTC : 2016-07-26 11:59:24
    _STATISTICS_TAGS : BPS DURATION NUMBER_OF_FRAMES NUMBER_OF_BYTES

    Text #1
    ID : 4
    Format : UTF-8
    Codec ID : S_TEXT/UTF8
    Codec ID/Info : UTF-8 Plain Text
    Title : Sub. Ita. Forced
    Language : Italian
    Default : Yes
    Forced : Yes
    DURATION : 01:13:13.764000000
    NUMBER_OF_FRAMES : 21
    NUMBER_OF_BYTES : 698
    _STATISTICS_WRITING_APP : mkvmerge v9.3.1 ('Mask Machine') 32bit
    _STATISTICS_WRITING_DATE_UTC : 2016-07-26 11:59:24
    _STATISTICS_TAGS : BPS DURATION NUMBER_OF_FRAMES NUMBER_OF_BYTES

    Text #2
    ID : 5
    Format : ASS
    Codec ID : S_TEXT/ASS
    Codec ID/Info : Advanced Sub Station Alpha
    Compression mode : Lossless
    Title : Sub. Ita.
    Language : Italian
    Default : No
    Forced : No
    DURATION : 01:22:00.415000000
    NUMBER_OF_FRAMES : 1099
    NUMBER_OF_BYTES : 35629
    _STATISTICS_WRITING_APP : mkvmerge v9.3.1 ('Mask Machine') 32bit
    _STATISTICS_WRITING_DATE_UTC : 2016-07-26 11:59:24
    _STATISTICS_TAGS : BPS DURATION NUMBER_OF_FRAMES NUMBER_OF_BYTES

    Text #3
    ID : 6
    Format : ASS
    Codec ID : S_TEXT/ASS
    Codec ID/Info : Advanced Sub Station Alpha
    Compression mode : Lossless
    Title : Sub. Eng.
    Language : English
    Default : No
    Forced : No
    DURATION : 01:21:50.739000000
    NUMBER_OF_FRAMES : 1057
    NUMBER_OF_BYTES : 35336
    _STATISTICS_WRITING_APP : mkvmerge v9.3.1 ('Mask Machine') 32bit
    _STATISTICS_WRITING_DATE_UTC : 2016-07-26 11:59:24
    _STATISTICS_TAGS : BPS DURATION NUMBER_OF_FRAMES NUMBER_OF_BYTES

    Menu
    00:00:00.000 : :00:00:00.000
    00:06:54.331 : :00:06:54.331
    00:11:00.994 : :00:11:00.994
    00:16:25.735 : :00:16:25.735
    00:21:37.630 : :00:21:37.630
    00:26:43.727 : :00:26:43.727
    00:31:46.863 : :00:31:46.863
    00:36:48.832 : :00:36:48.832
    00:41:57.181 : :00:41:57.181
    00:46:55.104 : :00:46:55.104
    00:52:22.639 : :00:52:22.639
    00:57:31.531 : :00:57:31.531
    01:01:30.896 : :01:01:30.896
    01:06:19.184 : :01:06:19.184
    01:11:55.144 : :01:11:55.144
    01:16:28.918 : :01:16:28.918





    [/spoiler]



    Comments (0)
     

    Write your comment

    Did you like this torrent? [Optional]