message

    Dexter.New.Blood.S01E04.1080p.WEB.H264-CAKES[rarbg]

    Likes 0 Dislikes 0
    Seeders 3115
    Leechers 563
    File Size 1.97 GB
    Downloads 20694
    Uploaded Nov 28, 2021
    Files
    Trackers
    More Info
    FolderDexter.New.Blood.S01E04.1080p.WEB.H264-CAKES[rarbg]
    Filedexter.new.blood.s01e04.1080p.web.h264-cakes.mkv - 1.97 GB
    Filedexter.new.blood.s01e04.1080p.web.h264-cakes.nfo - 256 B
    FileRARBG_DO_NOT_MIRROR.exe - 99 B
    FileRARBG.txt - 30 B
    Tracker Seeder Leecher
    udp://tracker.0x.tf:6969/announce 21 23
    udp://code2chicken.nl:6969/announce 35 11
    udp://tracker.opentrackr.org:1337/announce 546 169
    udp://tracker.zerobytes.xyz:1337/announce 21 27
    udp://mail.realliferpg.de:6969/announce 30 15
    udp://tracker2.dler.com:80/announce 10 12
    udp://fe.dealclub.de:6969/announce 29 14
    udp://discord.heihachi.pw:6969/announce 36 9
    udp://tracker.monitorit4.me:6969/announce 17 25
    udp://abufinzio.monocul.us:6969/announce 10 0
    udp://9.rarbg.com:2920/announce 3115 563
    udp://tracker0.ufibox.com:6969/announce 18 27
    udp://tracker.torrent.eu.org:451/announce 83 113
    udp://www.torrent.eu.org:451/announce 83 113
    udp://tracker.breizh.pm:6969/announce 5 0
    udp://open.stealth.si:80/announce 108 114
    udp://p4p.arenabg.com:1337/announce 82 54
    udp://engplus.ru:6969/announce 32 13
    udp://tracker.ololosh.space:6969/announce 17 1
    udp://mts.tvbit.co:6969/announce 22 24
    udp://opentor.org:2710/announce 79 109
    udp://retracker.netbynet.ru:2710/announce 79 109
    udp://vibe.sleepyinternetfun.xyz:1738/announce 14 27
    udp://movies.zsw.ca:6969/announce 25 20
    udp://bubu.mapfactor.com:6969/announce 39 6
    udp://exodus.desync.com:6969/announce 90 101
    udp://tracker.blacksparrowmedia.net:6969/announce 15 0
    udp://tracker.theoks.net:6969/announce 17 28
    udp://bt2.archive.org:6969/announce 12 0
    udp://bt1.archive.org:6969/announce 22 2
    udp://tracker1.bt.moack.co.kr:80/announce 17 0
    • InfoHash: C799EBE419EB92166F72BB4BB0047532048AB28E
    • Last Updated: Jan 23, 2022
    • File Count: 4
    • File Category: 3
    • Tags: RARBG, TV, HD
    This Torrent is seen on

    Dexter.New.Blood.S01E04.1080p.WEB.H264-CAKES

    Source: 1337x

    Uploaded By: TheMorozko

    Screens... (click to enlarge):










    Dexter.New.Blood.S01E04.1080p.WEB.H264-CAKES

    Infolink -> https://www.imdb.com/title/tt14164730/

    Quote:
    Mediainfo
    Video
    ID : 1
    Format : AVC
    Format/Info : Advanced Video Codec
    Format profile : [email protected]
    Format settings : CABAC / 4 Ref Frames
    Format settings, CABAC : Yes
    Format settings, Reference frames : 4 frames
    Codec ID : V_MPEG4/ISO/AVC
    Duration : 45 min 6 s
    Bit rate mode : Constant
    Bit rate : 5 078 kb/s
    Nominal bit rate : 10 000 kb/s
    Width : 1 920 pixels
    Height : 1 080 pixels
    Display aspect ratio : 16:9
    Frame rate mode : Constant
    Frame rate : 23.976 (24000/1001) FPS
    Color space : YUV
    Chroma subsampling : 4:2:0
    Bit depth : 8 bits
    Scan type : Progressive
    Bits/(Pixel*Frame) : 0.102
    Stream size : 1.60 GiB (87%)
    Default : Yes
    Forced : No
    Color range : Limited
    Color primaries : BT.709
    Transfer characteristics : BT.709
    Matrix coefficients : BT.709

    Audio
    ID : 2
    Format : E-AC-3
    Format/Info : Enhanced AC-3
    Commercial name : Dolby Digital Plus
    Codec ID : A_EAC3
    Duration : 45 min 6 s
    Bit rate mode : Constant
    Bit rate : 640 kb/s
    Channel(s) : 6 channels
    Channel layout : L R C LFE Ls Rs
    Sampling rate : 48.0 kHz
    Frame rate : 31.250 FPS (1536 SPF)
    Compression mode : Lossy
    Delay relative to video : 14 ms
    Stream size : 206 MiB (11%)
    Language : English
    Service kind : Complete Main
    Default : Yes
    Forced : No

    Text
    ID : 3
    Format : UTF-8
    Codec ID : S_TEXT/UTF8
    Codec ID/Info : UTF-8 Plain Text
    Title : English
    Language : English
    Default : No
    Forced : No

    Comments (0)
     

    Write your comment

    Did you like this torrent? [Optional]