message

    Bruce Lee - The Way Of The Dragon (1972) HQ 1080p Blu-Ray x264 DTSHD-MA 5.1 ESub -DDR

    Likes 0 Dislikes 0
    Seeders 0
    Leechers 2
    File Size 9.82 GB
    Downloads 0
    Uploaded Oct 22, 2018
    Files
    Trackers
    More Info
    FolderBruce Lee - The Way Of The Dragon (1972) HQ 1080p Blu-Ray x264 DTSHD-MA 5.1 ESub -DDR
    FileBruce Lee - The Way Of The Dragon (1972) HQ 1080p Blu-Ray x264 DTSHD-MA 5.1 ESub -DDR.mkv
    Filesample-Bruce Lee - The Way Of The Dragon (1972) HQ 1080p Blu-Ray x264 DTSHD-MA 5.1 ESub -DDR.mkv
    FileA DDR Release !!.txt
    FileTorrent downloaded from ExtraTorrent.cc.txt
    Tracker Seeder Leecher
    udp://tracker.opentrackr.org:1337/announce 0 2
    udp://ipv4.tracker.harry.lu:80/announce 0 0
    udp://tracker.moeking.me:6969/announce 0 0
    udp://tracker.bitsearch.to:1337/announce 0 0
    udp://tracker.torrent.eu.org:451/announce 0 0
    udp://open.stealth.si:80/announce 0 1
    udp://tracker.openbittorrent.com:80/announce 0 0
    udp://tracker4.itzmx.com:2710/announce 0 0
    udp://retracker.lanta-net.ru:2710/announce 0 0
    udp://tracker.tiny-vps.com:6969/announce 0 1
    udp://exodus.desync.com:6969/announce 0 1
    udp://explodie.org:6969/announce 0 1
    udp://tracker.internetwarriors.net:1337/announce 0 1
    • InfoHash: BF27FCC3690C2F2494A0268877A80593A3F7E586
    • Last Updated: Jan 24, 2022
    • File Count: 4
    • File Category: 2
    • Tags: Movies, HD
    Movie Information

    Bruce Lee, the Legend

    Movie
    The Official Golden Harvest tribute to the Master of the Martial Arts Film, Bruce Lee.
    Rating: Rating: 7.2/10
    time Duration: 88 Minutes
    Calender Release Date: Jan 1, 1984
    Country: Hong Kong
    This Torrent is seen on

    Bruce Lee - The Way Of The Dragon (1972) HQ 1080p Blu-Ray x264 DTSHD-MA 5.1 ESub -DDR

    Source: 1337x

    Uploaded By: SaM




    - HollywooD MoviE -
    **- Bruce Lee -**
    **- The Way Of The Dragon -**
    - (1972) -
    ** HQ 1080p Blu-Ray / x264 **
    [color=#0174DF]** English DTSHD-MA 5.1 **
    English subtitle(s)




    ~* SCREENSHOTS *~



    [ Specs ]
    General
    Source = BD50 @ DDR

    Format : Matroska
    File size : 9.05 GiB
    Duration : 1 h 39 min
    Overall bit rate : 13.1 Mb/s

    Video
    Format : AVC
    Format/Info : Advanced Video Codec
    Format profile : [email protected]
    Format settings, CABAC : Yes
    Format settings, ReFrames : 5 frames
    Codec ID : V_MPEG4/ISO/AVC
    Duration : 1 h 39 min
    Bit rate : 10 000 kb/s
    Width : 1 920 pixels
    Height : 816 pixels
    Display aspect ratio : 2.35:1
    Frame rate mode : Constant
    Frame rate : 23.976 (24000/1001) FPS
    Color space : YUV
    Chroma subsampling : 4:2:0
    Bit depth : 8 bits
    Scan type : Progressive
    Bits/(Pixel*Frame) : 0.266
    Stream size : 6.93 GiB (77%)
    Writing library : x264 core 148 r2705 3f5ed56
    Language : English
    Default : Yes
    Forced : No
    Color range : Limited
    Color primaries : BT.709
    Transfer characteristics : BT.709
    Matrix coefficients : BT.709

    Audio
    Format : DTS
    Format/Info : Digital Theater Systems
    Format profile : MA / Core
    Mode : 16
    Format settings, Endianness : Big
    Codec ID : A_DTS
    Duration : 1 h 39 min
    Bit rate mode : Variable / Constant
    Bit rate : 3 072 kb/s / 1 509 kb/s
    Channel(s) : 6 channels
    Channel positions : Front: L C R, Side: L R, LFE
    Sampling rate : 48.0 kHz
    Frame rate : 93.750 FPS (512 spf)
    Bit depth : 24 bits
    Compression mode : Lossless / Lossy
    Stream size : 2.12 GiB (23%)
    Language : English
    Default : Yes
    Forced : No
    Chapters: YES
    Sample: YES - included

    A DDR Exclusive Release...!

    Comments (0)
     

    Write your comment

    Did you like this torrent? [Optional]