message

    Aksar 2 (2017) DTH-Rip V2 720p Hindi H.264.AAC - LatestHDMovies.mkv

    Likes 0 Dislikes 0
    Seeders 1
    Leechers 1
    File Size 1.08 GB
    Downloads 0
    Uploaded Oct 22, 2018
    Files
    Trackers
    More Info
    FileAksar 2 (2017) DTH-Rip V2 720p Hindi H.264.AAC - LatestHDMovies.mkv
    Tracker Seeder Leecher
    udp://tracker.bitsearch.to:1337/announce 0 0
    udp://tracker.opentrackr.org:1337/announce 0 1
    udp://ipv4.tracker.harry.lu:80/announce 1 0
    udp://tracker.moeking.me:6969/announce 0 0
    udp://tracker.openbittorrent.com:80/announce 1 0
    udp://tracker.torrent.eu.org:451/announce 0 0
    udp://open.stealth.si:80/announce 0 0
    udp://tracker4.itzmx.com:2710/announce 0 0
    udp://retracker.lanta-net.ru:2710/announce 0 0
    udp://tracker.tiny-vps.com:6969/announce 0 0
    udp://exodus.desync.com:6969/announce 1 0
    udp://explodie.org:6969/announce 0 1
    udp://tracker.internetwarriors.net:1337/announce 0 0
    • InfoHash: 6C81A500F62FFD7EA3C29C3845B4E1B940889E70
    • Last Updated: Aug 7, 2021
    • File Count: 1
    • File Category: 2
    • Tags: Aksar 2 2017, 2017, Aksar 2, Movies, Bollywood
    Movie Information

    Aksar

    Movie
    Rajveer Singh is of East Indian origin and lives a very wealthy lifestyle in London, England along with his wife, former Indian model, Sheena. He finds her devoted but a little bit too possessive, and since they have signed a prenuptial agreement, he cannot divorce her. When Ricky comes to London for a photo shoot, he pays him Thirty Lakh rupees to seduce Sheena, Ricky agrees to do that as he is in debt. For this purpose Ricky is permitted to live in the Singh's mansion. At first Sheena shows hatred for Ricky, as he had ditched her friend, Nisha, but she subsequently succumbs to Ricky's charm. Rajveer then has a change of heart and finds he still loves Sheena, so he decides to pay Ricky Fifty Lakh rupees - this time to leave them - but Ricky refuses. Rajveer makes it up to Sheena by celebrating her birthday lavishly. It is on the night of the birthday that Ricky will be murdered, and this case will be assigned to Chief Investigating Officer Steve Bakshi - who has two suspects - ...
    Rating: Rating: 4.8/10
    time Duration: 135 Minutes
    Calender Release Date: Feb 3, 2006
    Country: India
    This Torrent is seen on

    Aksar 2 (2017) DTH-Rip V2 720p Hindi H.264 AAC - LatestHDMovies

    Source: 1337x

    Uploaded By: LHDM





    [[>>SAMPLE<<]]
    https://oload.stream/f/G8M856DUnFo/vlc-record-2018-06-03-07h06m56s-LatestHDMovies___TeamSHAHID-.mp4







    General
    Unique ID                   : 200172550403536492596342663729484626909 (0x9697D4B4FCDB1F7F15F03B4A11A77BDD)
    Complete name               : C:\Users\SHAHID\Downloads\Video\Aksar 2 (2017) DTH-Rip V2 720p Hindi H.264.AAC - LatestHDMovies.mkv
    Format                      : Matroska
    Format version              : Version 4 / Version 2
    File size                   : 1.00 GiB
    Duration                    : 1 h 50 min
    Overall bit rate            : 1 297 kb/s
    Movie name                  : LatestHDMovies | TeamSHAHID
    Encoded date                : UTC 2018-06-03 02:04:04
    Writing application         : mkvmerge v23.0.0 ('The Bride Said No') 32-bit
    Writing library             : libebml v1.3.6 + libmatroska v1.4.9
    Cover                       : Yes
    Attachments                 : Cover.jpg

    Video
    ID                          : 1
    Format                      : AVC
    Format/Info                 : Advanced Video Codec
    Format profile              : [email protected]
    Format settings             : CABAC / 5 Ref Frames
    Format settings, CABAC      : Yes
    Format settings, ReFrames   : 5 frames
    Codec ID                    : V_MPEG4/ISO/AVC
    Duration                    : 1 h 50 min
    Bit rate                    : 1 152 kb/s
    Width                       : 1 288 pixels
    Height                      : 544 pixels
    Display aspect ratio        : 2.35:1
    Frame rate mode             : Constant
    Frame rate                  : 25.000 FPS
    Color space                 : YUV
    Chroma subsampling          : 4:2:0
    Bit depth                   : 8 bits
    Scan type                   : Progressive
    Bits/(Pixel*Frame)          : 0.066
    Stream size                 : 922 MiB (90%)
    Title                       : LatestHDMovies | TeamSHAHID
    Writing library             : x264 core 148 r2643 5c65704
    Encoding settings           : cabac=1 / ref=5 / deblock=1:0:0 / analyse=0x3:0x113 / me=hex / subme=7 / psy=1 / psy_rd=1.00:0.00 / mixed_ref=1 / me_range=16 / chroma_me=1 / trellis=1 / 8x8dct=1 / cqm=0 / deadzone=21,11 / fast_pskip=1 / chroma_qp_offset=-2 / threads=8 / lookahead_threads=8 / sliced_threads=1 / slices=8 / nr=0 / decimate=1 / interlaced=0 / bluray_compat=0 / constrained_intra=0 / bframes=0 / weightp=2 / keyint=250 / keyint_min=25 / scenecut=40 / intra_refresh=0 / rc=abr / mbtree=0 / bitrate=1152 / ratetol=1.0 / qcomp=0.60 / qpmin=0 / qpmax=69 / qpstep=4 / ip_ratio=1.40 / aq=1:1.00
    Language                    : Hindi
    Default                     : Yes
    Forced                      : No

    Audio
    ID                          : 2
    Format                      : AAC
    Format/Info                 : Advanced Audio Codec
    Format profile              : LC
    Codec ID                    : A_AAC-2
    Duration                    : 1 h 50 min
    Bit rate                    : 132 kb/s
    Channel(s)                  : 2 channels
    Channel positions           : Front: L R
    Sampling rate               : 48.0 kHz
    Frame rate                  : 46.875 FPS (1024 SPF)
    Compression mode            : Lossy
    Delay relative to video     : -21 ms
    Stream size                 : 103 MiB (10%)
    Title                       : LatestHDMovies | TeamSHAHID
    Language                    : Hindi
    Default                     : Yes
    Forced                      : No




    Comments (0)
     

    Write your comment

    Did you like this torrent? [Optional]